<svg xmlns="http://www.w3.org/2000/svg"><defs><font horiz-adv-x="1169"><font-face units-per-em="2048" ascent="1638" descent="-410"/><glyph unicode="ﬁ" horiz-adv-x="1315" d="M35 0zm688 928H453V0H217v928H35v110l182 72v72q0 196 92 290.5t281 94.5q124 0 244-41l-62-178q-87 28-166 28-80 0-116.5-49.5T453 1178v-72h270V928zM1146 0H911v1106h235V0zM897 1399q0 63 34.5 97t98.5 34q62 0 96.5-34t34.5-97q0-60-34.5-94.5T1030 1270q-64 0-98.5 34.5T897 1399z"/><glyph unicode="ﬂ" horiz-adv-x="1315" d="M35 0zm688 928H453V0H217v928H35v110l182 72v72q0 196 92 290.5t281 94.5q124 0 244-41l-62-178q-87 28-166 28-80 0-116.5-49.5T453 1178v-72h270V928zM1146 0H911v1556h235V0z"/><glyph unicode="ﬃ" horiz-adv-x="2058" d="M35 0zm688 928H453V0H217v928H35v110l182 72v72q0 196 92 290.5t281 94.5q124 0 244-41l-62-178q-87 28-166 28-80 0-116.5-49.5T453 1178v-72h270V928zm743 0h-270V0H960v928H778v110l182 72v72q0 196 92 290.5t281 94.5q124 0 244-41l-62-178q-87 28-166 28-80 0-116.5-49.5T1196 1178v-72h270V928zM1890 0h-235v1106h235V0zm-249 1399q0 63 34.5 97t98.5 34q62 0 96.5-34t34.5-97q0-60-34.5-94.5T1774 1270q-64 0-98.5 34.5T1641 1399z"/><glyph unicode="ﬄ" horiz-adv-x="2058" d="M35 0zm688 928H453V0H217v928H35v110l182 72v72q0 196 92 290.5t281 94.5q124 0 244-41l-62-178q-87 28-166 28-80 0-116.5-49.5T453 1178v-72h270V928zm743 0h-270V0H960v928H778v110l182 72v72q0 196 92 290.5t281 94.5q124 0 244-41l-62-178q-87 28-166 28-80 0-116.5-49.5T1196 1178v-72h270V928zM1890 0h-235v1556h235V0z"/><glyph horiz-adv-x="2048"/><glyph horiz-adv-x="2048"/><glyph horiz-adv-x="1044"/><glyph horiz-adv-x="532"/><glyph horiz-adv-x="532"/><glyph horiz-adv-x="532"/><glyph unicode="!" horiz-adv-x="565" d="M371 444H197l-52 1018h277zM133 125q0 74 39 112.5T283 276q71 0 109-40t38-111-38.5-112.5T283-29q-71 0-110.5 40T133 125z"/><glyph unicode="&amp;quot;" horiz-adv-x="893" d="M365 1462l-41-528H174l-41 528h232zm395 0l-41-528H569l-41 528h232z"/><glyph unicode="#" horiz-adv-x="1323" d="M989 870l-55-284h270V418H901L821 0H643l80 418H475L395 0H221l76 418H47v168h283l57 284H123v168h293l80 422h180l-80-422h252l80 422h174l-80-422h252V870H989zM506 586h250l57 284H563z"/><glyph unicode="$" d="M1063 453q0-145-106-239T651 98v-217H518V92q-248 4-407 76v211q86-42 201-70.5T518 279v374l-84 31q-164 63-239.5 150.5T119 1051q0 138 107.5 227T518 1386v168h133v-165q203-7 385-82l-73-183q-157 62-312 74V834l76-29q190-73 263-154t73-198zm-236-15q0 58-40.5 95.5T651 606V287q176 27 176 151zm-473 615q0-57 35.5-95T518 883v311q-80-12-122-49t-42-92z"/><glyph unicode="%" horiz-adv-x="1765" d="M279 1024q0-149 29-222t95-73q132 0 132 295t-132 295q-66 0-95-73t-29-222zm450 2q0-230-82.5-345.5T403 565q-152 0-235.5 119.5T84 1026q0 457 319 457 157 0 241.5-118.5T729 1026zm502-586q0-149 29.5-223t95.5-74q131 0 131 297 0 293-131 293-66 0-95.5-72T1231 440zm450 0q0-230-83-345T1356-20q-152 0-236 118.5T1036 440q0 457 320 457 154 0 239.5-118t85.5-339zm-297 1022L573 0H379l811 1462h194z"/><glyph unicode="&amp;" horiz-adv-x="1516" d="M451 1147q0-63 33.5-119T578 909q113 64 158.5 119.5T782 1153q0 65-43.5 104T623 1296q-79 0-125.5-40.5T451 1147zm149-965q183 0 313 107L530 666q-106-68-146-127.5T344 403q0-98 69.5-159.5T600 182zM96 387q0 131 64 228.5T391 809q-95 111-129.5 187.5T227 1155q0 152 108.5 240t291.5 88q177 0 278-85.5t101-230.5q0-114-67.5-207T713 774l346-334q81 107 135 314h242q-70-284-224-463L1513 0h-303l-149 145Q959 63 843.5 21.5T588-20Q358-20 227 89T96 387z"/><glyph unicode="'" horiz-adv-x="498" d="M365 1462l-41-528H174l-41 528h232z"/><glyph unicode="(" horiz-adv-x="649" d="M82 561q0 265 77.5 496T383 1462h205q-139-188-213-421.5T301 563t74-473 211-414H383Q236-154 159 73T82 561z"/><glyph unicode=")" horiz-adv-x="649" d="M567 561q0-263-77.5-490T266-324H63Q201-137 274.5 91T348 563q0 245-74 477.5T61 1462h205q147-175 224-406.5T567 561z"/><glyph unicode="*" horiz-adv-x="1122" d="M672 1556l-41-382 385 108 28-217-360-29 236-311-199-107-166 338-149-338-205 107 231 311-358 29 35 217 376-108-41 382h228z"/><glyph unicode="+" d="M494 633H96v178h398v408h180V811h399V633H674V227H494v406z"/><glyph unicode="," horiz-adv-x="547" d="M412 215Q364 29 236-264H63Q132 6 166 238h231z"/><glyph unicode="-" horiz-adv-x="659" d="M72 449v200h514V449H72z"/><glyph unicode="." horiz-adv-x="563" d="M133 125q0 73 38 112t110 39q73 0 111-40.5T430 125q0-71-38.5-112.5T281-29 171 12t-38 113z"/><glyph unicode="/" horiz-adv-x="799" d="M782 1462L238 0H16l545 1462h221z"/><glyph unicode="0" d="M1081 731q0-381-122.5-566T584-20q-244 0-370 191T88 731q0 387 122.5 570.5T584 1485q245 0 371-192t126-562zm-755 0q0-299 61.5-427T584 176t197.5 130T844 731q0 294-62.5 425.5T584 1288t-196.5-129T326 731z"/><glyph unicode="1" d="M780 0H545v944q0 169 8 268-23-24-56.5-53T272 975l-118 149 430 338h196V0z"/><glyph unicode="2" d="M1081 0H90v178l377 379q167 171 221.5 242.5T768 934t25 135q0 99-59.5 156T569 1282q-84 0-162.5-31T225 1139L98 1294q122 103 237 146t245 43q204 0 327-106.5t123-286.5q0-99-35.5-188t-109-183.5T641 463L387 217v-10h694V0z"/><glyph unicode="3" d="M1026 1126q0-139-81-231.5T717 770v-8q176-22 264-109.5t88-232.5q0-211-149-325.5T496-20Q253-20 86 59v209q93-46 197-71t200-25q170 0 254 63t84 195q0 117-93 172t-292 55H309v191h129q350 0 350 242 0 94-61 145t-180 51q-83 0-160-23.5T205 1171L90 1335q201 148 467 148 221 0 345-95t124-262z"/><glyph unicode="4" d="M1133 319H936V0H707v319H39v181l668 966h229V514h197V319zM707 514v367q0 196 10 321h-8q-28-66-88-160L258 514h449z"/><glyph unicode="5" d="M586 913q221 0 350-117t129-319q0-234-146.5-365.5T502-20q-245 0-385 79v213q81-46 186-71t195-25q159 0 242 71t83 208q0 262-334 262-47 0-116-9.5T252 686l-105 62 56 714h760v-209H410l-33-362q35 6 85.5 14t123.5 8z"/><glyph unicode="6" d="M94 623q0 858 699 858 110 0 186-17v-196q-76 22-176 22-235 0-353-126T322 760h12q47 81 132 125.5T666 930q199 0 310-122t111-331q0-230-128.5-363.5T608-20q-157 0-273 75.5t-178.5 220T94 623zm510-449q121 0 186.5 78T856 475q0 126-61.5 198T610 745q-76 0-140-32.5t-101-89T332 508q0-141 76.5-237.5T604 174z"/><glyph unicode="7" d="M256 0l578 1253H74v207h1011v-164L510 0H256z"/><glyph unicode="8" d="M584 1481q208 0 329-95.5t121-255.5q0-225-270-358 172-86 244.5-181t72.5-212q0-181-133-290T588-20Q350-20 219 82T88 371q0 122 68.5 219.5T381 764q-134 80-191 169t-57 200q0 159 125 253.5t326 94.5zM313 379q0-104 73-161.5T584 160q129 0 200.5 59.5T856 381q0 81-66 148T590 653l-29 13q-132-58-190-127.5T313 379zm269 921q-100 0-161-49.5T360 1116q0-52 22-93t64-74.5T588 868q120 53 169.5 111.5T807 1116q0 85-61.5 134.5T582 1300z"/><glyph unicode="9" d="M1079 838q0-432-174-645T381-20Q248-20 190-4v197q89-25 179-25 238 0 355 128t128 402h-12q-59-90-142.5-130T502 528q-194 0-305 121T86 981q0 229 128.5 364.5T565 1481q156 0 272-76t179-220.5 63-346.5zm-510 448q-122 0-187-79.5T317 983q0-125 60.5-196.5T561 715q119 0 200 71t81 166q0 89-34.5 166.5T711 1241t-142 45z"/><glyph unicode=":" horiz-adv-x="563" d="M133 125q0 73 38 112t110 39q73 0 111-40.5T430 125q0-71-38.5-112.5T281-29 171 12t-38 113zm0 854q0 151 148 151 75 0 112-40t37-111-38.5-112.5T281 825t-110 41-38 113z"/><glyph unicode=";" horiz-adv-x="569" d="M397 238l15-23Q364 29 236-264H63Q132 6 166 238h231zM131 979q0 151 148 151 75 0 112-40t37-111-38.5-112.5T279 825t-110 41-38 113z"/><glyph unicode="<" d="M1073 221L96 651v121l977 488v-195L340 721l733-303V221z"/><glyph unicode="=" d="M102 831v179h963V831H102zm0-399v178h963V432H102z"/><glyph unicode=">" d="M96 418l733 303-733 344v195l977-488V651L96 221v197z"/><glyph unicode="?" horiz-adv-x="928" d="M283 444v64q0 110 40 183t140 151q119 94 153.5 146t34.5 124q0 84-56 129t-161 45q-95 0-176-27t-158-65l-84 176q203 113 435 113 196 0 311-96t115-265q0-75-22-133.5T788.5 877 635 739q-93-73-124.5-121T479 489v-45H283zm-41-319q0 151 147 151 72 0 110-39.5T537 125q0-71-38.5-112.5T389-29 280 11.5 242 125z"/><glyph unicode="@" horiz-adv-x="1839" d="M1726 739q0-143-45-261.5T1554.5 293 1366 227q-79 0-137 42t-78 114h-12q-49-78-121-117t-162-39q-163 0-256.5 105T506 616q0 206 124 334.5T963 1079q76 0 168.5-13.5T1296 1028l-22-465v-24q0-160 104-160 79 0 125.5 102t46.5 260q0 171-70 300.5T1281 1241t-296 70q-213 0-370.5-88T374 971.5 291 592q0-290 155-446T891-10q221 0 461 90V-84q-210-86-457-86-370 0-577 199.5T111 586q0 261 112 464.5T533.5 1362 983 1470q217 0 386.5-90t263-256.5T1726 739zM698 612q0-233 183-233 193 0 211 293l12 239q-63 17-135 17-128 0-199.5-85T698 612z"/><glyph unicode="A" horiz-adv-x="1354" d="M1100 0L954 406H395L252 0H0l547 1468h260L1354 0h-254zM891 612l-137 398q-15 40-41.5 126T676 1262q-27-123-79-269L465 612h426z"/><glyph unicode="B" horiz-adv-x="1352" d="M193 1462h434q302 0 436.5-88t134.5-278q0-128-66-213T942 776v-10q154-29 226.5-114.5T1241 420q0-197-137.5-308.5T721 0H193v1462zm239-604h230q150 0 219 47.5t69 161.5q0 103-74.5 149T639 1262H432V858zm0-194V201h254q150 0 226.5 57.5T989 440q0 114-78 169t-237 55H432z"/><glyph unicode="C" horiz-adv-x="1298" d="M815 1278q-206 0-324-146T373 729q0-269 113.5-407T815 184q93 0 180 18.5t181 47.5V45q-172-65-390-65-321 0-493 194.5T121 731q0 228 83.5 399T446 1392t371 91q224 0 414-94l-86-199q-74 35-156.5 61.5T815 1278z"/><glyph unicode="D" horiz-adv-x="1503" d="M1382 745q0-362-201-553.5T602 0H193v1462h452q349 0 543-188t194-529zm-252-8q0 525-491 525H432V201h170q528 0 528 536z"/><glyph unicode="E" horiz-adv-x="1143" d="M1020 0H193v1462h827v-202H432V862h551V662H432V203h588V0z"/><glyph unicode="F" horiz-adv-x="1090" d="M430 0H193v1462h825v-202H430V803h551V600H430V0z"/><glyph unicode="G" horiz-adv-x="1487" d="M791 793h538V59q-132-43-253.5-61T813-20q-332 0-512 196.5T121 731q0 353 203 552.5T883 1483q229 0 434-88l-84-199q-178 82-356 82-234 0-370-147T371 729q0-268 122.5-407.5T846 182q116 0 248 29v377H791v205z"/><glyph unicode="H" horiz-adv-x="1538" d="M1346 0h-240v659H432V0H193v1462h239V864h674v598h240V0z"/><glyph unicode="I" horiz-adv-x="625" d="M193 0v1462h239V0H193z"/><glyph unicode="J" horiz-adv-x="612" d="M8-408q-98 0-164 25v201q84-21 146-21 196 0 196 248v1417h240V53q0-224-106.5-342.5T8-408z"/><glyph unicode="K" horiz-adv-x="1309" d="M1309 0h-277L573 662 432 547V0H193v1462h239V764q98 120 195 231l395 467h272q-383-450-549-641z"/><glyph unicode="L" horiz-adv-x="1110" d="M193 0v1462h239V205h619V0H193z"/><glyph unicode="M" horiz-adv-x="1890" d="M825 0L401 1221h-8q17-272 17-510V0H193v1462h337L936 299h6l418 1163h338V0h-230v723q0 109 5.5 284t9.5 212h-8L1036 0H825z"/><glyph unicode="N" horiz-adv-x="1604" d="M1411 0h-293L399 1165h-8l5-65q14-186 14-340V0H193v1462h290l717-1159h6q-2 23-8 167.5t-6 225.5v766h219V0z"/><glyph unicode="O" horiz-adv-x="1612" d="M1491 733q0-357-178.5-555T807-20q-331 0-508.5 196.5T121 735t178.5 556T809 1485q326 0 504-197t178-555zm-1116 0q0-270 109-409.5T807 184q213 0 321.5 138T1237 733q0 269-107.5 408T809 1280q-215 0-324.5-139T375 733z"/><glyph unicode="P" horiz-adv-x="1260" d="M1161 1020q0-229-150-351T584 547H432V0H193v1462h421q274 0 410.5-112t136.5-330zM432 748h127q184 0 270 64t86 200q0 126-77 188t-240 62H432V748z"/><glyph unicode="Q" horiz-adv-x="1612" d="M1491 733q0-266-101.5-448T1094 29l350-377h-322L846-20h-39q-331 0-508.5 196.5T121 735t178.5 556T809 1485q326 0 504-197t178-555zm-1116 0q0-270 109-409.5T807 184q213 0 321.5 138T1237 733q0 269-107.5 408T809 1280q-215 0-324.5-139T375 733z"/><glyph unicode="R" horiz-adv-x="1309" d="M432 782h166q167 0 242 62t75 184q0 124-81 178t-244 54H432V782zm0-198V0H193v1462h413q283 0 419-106t136-320q0-273-284-389L1290 0h-272L668 584H432z"/><glyph unicode="S" horiz-adv-x="1126" d="M1036 397q0-195-141-306T506-20 100 57v226q100-47 212.5-74T522 182q142 0 209.5 54T799 381q0 82-62 139T481 655q-200 81-282 185t-82 250q0 183 130 288t349 105q210 0 418-92l-76-195q-195 82-348 82-116 0-176-50.5T354 1094q0-57 24-97.5t79-76.5 198-95q161-67 236-125t110-131 35-172z"/><glyph unicode="T" horiz-adv-x="1159" d="M698 0H459v1257H29v205h1099v-205H698V0z"/><glyph unicode="U" horiz-adv-x="1520" d="M1339 1462V516q0-162-69.5-283.5t-201-187T754-20q-272 0-423 144T180 520v942h240V537q0-181 84-267t258-86q338 0 338 355v923h239z"/><glyph unicode="V" horiz-adv-x="1274" d="M1026 1462h248L762 0H510L0 1462h246l305-909q24-65 51-167.5T637 233q13 76 40 176t44 148z"/><glyph unicode="W" horiz-adv-x="1937" d="M1542 0h-260l-248 872q-16 57-40 164.5T965 1186q-10-64-32.5-166T895 868L653 0H393L204 732 12 1462h244l209-852q49-205 70-362 11 85 33 190t40 170l238 854h237l244-858q35-119 74-356 15 143 72 364l208 850h242z"/><glyph unicode="X" horiz-adv-x="1274" d="M1270 0H995L629 598 260 0H4l485 758-454 704h266l338-553 338 553h258L778 754z"/><glyph unicode="Y" horiz-adv-x="1212" d="M606 795l346 667h260L725 567V0H485v559L0 1462h260z"/><glyph unicode="Z" horiz-adv-x="1178" d="M1112 0H66v166l737 1091H86v205h1006v-168L352 205h760V0z"/><glyph unicode="[" horiz-adv-x="676" d="M625-324H154v1786h471v-176H369V-147h256v-177z"/><glyph unicode="\" horiz-adv-x="799" d="M238 1462L782 0H561L16 1462h222z"/><glyph unicode="]" horiz-adv-x="676" d="M51-147h256v1433H51v176h469V-324H51v177z"/><glyph unicode="^" horiz-adv-x="1100" d="M29 535l436 935h121l485-935H877l-349 694-307-694H29z"/><glyph unicode="_" horiz-adv-x="879" d="M883-319H-4v135h887v-135z"/><glyph unicode="`" horiz-adv-x="1212" d="M690 1241q-69 52-174.5 150.5T362 1548v21h273q38-70 103.5-161T848 1266v-25H690z"/><glyph unicode="a" horiz-adv-x="1188" d="M860 0l-47 154h-8Q725 53 644 16.5T436-20q-163 0-254.5 88T90 317q0 171 127 258t387 95l191 6v59q0 106-49.5 158.5T592 946q-85 0-163-25t-150-59l-76 168q90 47 197 71.5t202 24.5q211 0 318.5-92T1028 745V0H860zM510 160q128 0 205.5 71.5T793 432v96l-142-6q-166-6-241.5-55.5T334 315q0-74 44-114.5T510 160z"/><glyph unicode="b" horiz-adv-x="1276" d="M733 1126q207 0 322.5-150T1171 555q0-272-117-423.5T729-20q-210 0-326 151h-16L344 0H168v1556h235v-370q0-41-4-122t-6-103h10q112 165 330 165zm-61-192q-142 0-204.5-83.5T403 571v-16q0-202 64-292.5T676 172q125 0 189.5 99T930 557q0 377-258 377z"/><glyph unicode="c" horiz-adv-x="1014" d="M614-20q-251 0-381.5 146.5T102 547q0 279 136.5 429T633 1126q175 0 315-65l-71-189q-149 58-246 58-287 0-287-381 0-186 71.5-279.5T625 176q157 0 297 78V49Q859 12 787.5-4T614-20z"/><glyph unicode="d" horiz-adv-x="1276" d="M541-20q-207 0-323 150T102 551q0 272 117.5 423.5T545 1126q218 0 332-161h12q-17 119-17 188v403h236V0H924l-41 145h-11Q759-20 541-20zm63 190q145 0 211 81.5T883 516v33q0 209-68 297t-213 88q-124 0-191-100.5T344 547q0-184 65-280.5T604 170z"/><glyph unicode="e" horiz-adv-x="1180" d="M651-20q-258 0-403.5 150.5T102 545q0 271 135 426t371 155q219 0 346-133t127-366V500H344q5-161 87-247.5T662 166q98 0 182.5 18.5T1026 246V55Q940 14 852-3T651-20zm-43 968q-112 0-179.5-71T348 670h502q-2 137-66 207.5T608 948z"/><glyph unicode="f" horiz-adv-x="743" d="M723 928H453V0H217v928H35v110l182 72v72q0 196 92 290.5t281 94.5q124 0 244-41l-62-178q-87 28-166 28-80 0-116.5-49.5T453 1178v-72h270V928z"/><glyph unicode="g" horiz-adv-x="1139" d="M1102 1106V977l-189-35q26-35 43-86t17-108q0-171-118-269t-325-98q-53 0-96 8-76-47-76-110 0-38 35.5-57T524 203h193q183 0 278-78t95-225q0-188-155-290T487-492q-226 0-345 80T23-184Q23-82 87.5-12.5T268 84q-47 20-77.5 64.5T160 242q0 62 35 105t104 85q-86 37-139.5 120.5T106 748q0 180 113.5 279t323.5 99q47 0 98.5-6.5T719 1106h383zM233-172q0-76 68.5-117T494-330q192 0 286 55t94 146q0 72-51.5 102.5T631 4H453Q352 4 292.5-43.5T233-172zm101 920q0-104 53.5-160T541 532q204 0 204 218 0 108-50.5 166.5T541 975q-102 0-154.5-58T334 748z"/><glyph unicode="h" horiz-adv-x="1300" d="M1141 0H905v680q0 128-51.5 191T690 934q-148 0-217.5-88.5T403 549V0H168v1556h235v-395q0-95-12-203h15q48 80 133.5 124t199.5 44q402 0 402-405V0z"/><glyph unicode="i" horiz-adv-x="571" d="M403 0H168v1106h235V0zM154 1399q0 63 34.5 97t98.5 34q62 0 96.5-34t34.5-97q0-60-34.5-94.5T287 1270q-64 0-98.5 34.5T154 1399z"/><glyph unicode="j" horiz-adv-x="571" d="M55-492q-106 0-176 25v186q68-18 139-18 150 0 150 170v1235h235V-145q0-171-89.5-259T55-492zm99 1891q0 63 34.5 97t98.5 34q62 0 96.5-34t34.5-97q0-60-34.5-94.5T287 1270q-64 0-98.5 34.5T154 1399z"/><glyph unicode="k" horiz-adv-x="1171" d="M395 584l133 166 334 356h271L688 631 1161 0H885L530 485 401 379V0H168v1556h233V797l-12-213h6z"/><glyph unicode="l" horiz-adv-x="571" d="M403 0H168v1556h235V0z"/><glyph unicode="m" horiz-adv-x="1958" d="M1100 0H864v682q0 127-48 189.5T666 934q-136 0-199.5-88.5T403 551V0H168v1106h184l33-145h12q46 79 133.5 122t192.5 43q255 0 338-174h16q49 82 138 128t204 46q198 0 288.5-100t90.5-305V0h-235v682q0 127-48.5 189.5T1364 934q-137 0-200.5-85.5T1100 586V0z"/><glyph unicode="n" horiz-adv-x="1300" d="M1141 0H905v680q0 128-51.5 191T690 934q-149 0-218-88t-69-295V0H168v1106h184l33-145h12q50 79 142 122t204 43q398 0 398-405V0z"/><glyph unicode="o" horiz-adv-x="1251" d="M1149 555q0-271-139-423T623-20q-155 0-274 70T166 251t-64 304q0 269 138 420t389 151q240 0 380-154.5T1149 555zm-805 0q0-383 283-383 280 0 280 383 0 379-282 379-148 0-214.5-98T344 555z"/><glyph unicode="p" horiz-adv-x="1276" d="M729-20q-210 0-326 151h-14Q403-9 403-39v-453H168v1598h190q8-31 33-148h12q110 168 330 168 207 0 322.5-150T1171 555t-117.5-423T729-20zm-57 954q-140 0-204.5-82T403 590v-35q0-202 64-292.5T676 172q122 0 188 100t66 285q0 186-65.5 281.5T672 934z"/><glyph unicode="q" horiz-adv-x="1276" d="M606 168q148 0 212.5 85.5T883 512v37q0 205-66.5 295T602 934q-126 0-192-100t-66-287q0-379 262-379zM539-20q-205 0-321 150.5T102 551t118 422.5T545 1126q104 0 186.5-38.5T879 961h8l26 145h195V-492H872v469q0 44 4 93t7 75h-13Q766-20 539-20z"/><glyph unicode="r" horiz-adv-x="883" d="M729 1126q71 0 117-10l-23-219q-50 12-104 12-141 0-228.5-92T403 578V0H168v1106h184l31-195h12q55 99 143.5 157t190.5 58z"/><glyph unicode="s" horiz-adv-x="997" d="M911 315q0-162-118-248.5T455-20q-221 0-355 67v203q195-90 363-90 217 0 217 131 0 42-24 70t-79 58-153 68q-191 74-258.5 148T98 827q0 142 114.5 220.5T524 1126q195 0 369-79l-76-177q-179 74-301 74-186 0-186-106 0-52 48.5-88T590 651q137-53 199-97t92-101.5T911 315z"/><glyph unicode="t" horiz-adv-x="805" d="M580 170q86 0 172 27V20Q713 3 651.5-8.5T524-20q-334 0-334 352v596H39v104l162 86 80 234h145v-246h315V928H426V336q0-85 42.5-125.5T580 170z"/><glyph unicode="u" horiz-adv-x="1300" d="M948 0l-33 145h-12Q854 68 763.5 24T557-20Q356-20 257 80t-99 303v723h237V424q0-127 52-190.5T610 170q148 0 217.5 88.5T897 555v551h236V0H948z"/><glyph unicode="v" horiz-adv-x="1096" d="M420 0L0 1106h248l225-643q58-162 70-262h8q9 72 70 262l225 643h250L674 0H420z"/><glyph unicode="w" horiz-adv-x="1673" d="M1075 0L932 516q-26 82-94 381h-9q-58-270-92-383L590 0H330L20 1106h240l141-545q48-202 68-346h6q10 73 30.5 167.5T541 524l168 582h258l163-582q15-49 37.5-150t26.5-157h8q15 123 70 344l143 545h236L1339 0h-264z"/><glyph unicode="x" horiz-adv-x="1128" d="M414 565L43 1106h268l252-387 254 387h266L711 565 1102 0H836L563 414 291 0H25z"/><glyph unicode="y" horiz-adv-x="1098" d="M0 1106h256l225-627q51-134 68-252h8q9 55 33 133.5T844 1106h254L625-147Q496-492 195-492q-78 0-152 17v186q53-12 121-12 170 0 239 197L444 0z"/><glyph unicode="z" horiz-adv-x="979" d="M907 0H68v145l559 781H102v180h789V942L344 180h563V0z"/><glyph unicode="{" horiz-adv-x="791" d="M311 287q0 186-266 186v191q135 0 200.5 45.5T311 848v311q0 156 108.5 229.5T745 1462v-182q-114-5-165.5-46.5T528 1110V813q0-199-229-238v-12q229-36 229-237V27q0-82 51-124t166-44v-183q-231 2-332.5 78.5T311 2v285z"/><glyph unicode="|" horiz-adv-x="1128" d="M473 1552h180V-481H473v2033z"/><glyph unicode="}" horiz-adv-x="760" d="M463-20q0-156-99.5-229T45-324v183q95 1 148 38.5T246 27v262q0 121 53 187t176 87v12q-229 39-229 238v297q0 82-45.5 123.5T45 1280v182q223 0 320.5-76.5T463 1135V848q0-100 63.5-142T715 664V473q-123 0-187.5-42.5T463 287V-20z"/><glyph unicode="~" d="M330 692q-50 0-111.5-30T96 571v191q99 108 250 108 66 0 125-13t147-50q131-55 220-55 52 0 114.5 31t120.5 89V682Q968 571 823 571q-65 0-127.5 15.5T549 637q-127 55-219 55z"/><glyph unicode="¡" horiz-adv-x="565" d="M193 645h174l51-1016H141zm237 320q0-74-37.5-113T281 813q-72 0-110 39.5T133 965q0 69 38 111t110 42 110.5-40.5T430 965z"/><glyph unicode="¢" d="M987 238q-119-59-258-64V-20H573v200q-207 31-307 171T166 741q0 254 100.5 397T573 1313v170h158v-162q152-5 283-66l-70-188q-146 59-250 59-146 0-216-95t-70-288q0-194 72-283t210-89q75 0 142.5 15T987 438V238z"/><glyph unicode="£" d="M690 1481q194 0 375-82l-76-182q-162 71-284 71-205 0-205-219V825h397V653H500V471q0-91-33-155T354 207h756V0H72v195q98 30 145 96t47 178v184H76v172h188v256q0 188 113.5 294T690 1481z"/><glyph unicode="¤" d="M186 723q0 109 64 213l-133 133 121 119 131-129q100 63 215 63t213-65l133 131 121-117-131-133q63-100 63-215 0-119-63-217l129-129-119-119-133 129q-99-61-213-61-126 0-215 61L238 260 119 379l131 129q-64 99-64 215zm168 0q0-98 68-164.5T584 492q97 0 165 66.5T817 723q0 97-68 165t-165 68q-93 0-161.5-68T354 723z"/><glyph unicode="¥" d="M584 797l321 665h244L750 702h227V551H696V397h281V244H696V0H471v244H188v153h283v154H188v151h224L18 1462h246z"/><glyph unicode="¦" horiz-adv-x="1128" d="M473 1552h180V758H473v794zm0-1237h180v-796H473v796z"/><glyph unicode="§" horiz-adv-x="1026" d="M129 807q0 80 38.5 145.5T279 1061q-146 83-146 235 0 129 109.5 202t294.5 73q91 0 174-17t182-59l-68-162q-116 50-176 63t-121 13q-194 0-194-109 0-54 55-93.5t191-90.5q175-68 250-146.5T905 782q0-177-139-266 139-80 139-223 0-142-118-224.5T461-14q-212 0-346 71v179q77-40 173-65.5T465 145q235 0 235 131 0 43-21 70t-71 54-147 65q-141 55-206 101.5t-95.5 105T129 807zm184 20q0-45 24-80t78.5-69T610 588q109 65 109 168 0 75-62 126.5T436 987q-54-16-88.5-61.5T313 827z"/><glyph unicode="¨" horiz-adv-x="1212" d="M293 1399q0 62 33.5 89.5T408 1516q53 0 84.5-31t31.5-86q0-53-32-85t-84-32q-48 0-81.5 29t-33.5 88zm393 0q0 62 33.5 89.5T801 1516q53 0 85-31t32-86q0-54-33-85.5t-84-31.5q-48 0-81.5 29t-33.5 88z"/><glyph unicode="©" horiz-adv-x="1704" d="M893 1034q-111 0-171-80.5T662 731q0-147 54-226t177-79q55 0 118 15t109 36V319q-115-51-235-51-197 0-305.5 120.5T471 731q0 214 110 337.5T887 1192q138 0 274-70l-65-143q-106 55-203 55zM100 731q0 200 100 375t275 276 377 101q200 0 375-100t276-275 101-377q0-197-97-370T1235 84 852-20Q645-20 470 83.5T197.5 360 100 731zm123 0q0-170 84.5-315.5T538 186t314-84q170 0 316 85.5t229.5 230T1481 731q0 168-84.5 314.5t-231 230.5-313.5 84q-168 0-312.5-83T309 1048t-86-317z"/><glyph unicode="ª" horiz-adv-x="754" d="M547 782l-29 97q-46-55-105-82t-130-27q-113 0-169.5 52.5T57 981q0 104 84 159.5t252 61.5l107 4q0 72-34.5 108T362 1350q-90 0-210-56l-54 115q144 70 285 70 138 0 207-62.5t69-187.5V782H547zm-146 316q-71-2-125.5-34T221 983q0-88 96-88 91 0 137 41t46 123v43z"/><glyph unicode="«" horiz-adv-x="1139" d="M82 561l356 432 168-94-282-350 282-348-168-97L82 535v26zm450 0l357 432 168-94-283-350 283-348-168-97-357 431v26z"/><glyph unicode="¬" d="M1073 256H895v377H96v178h977V256z"/><glyph unicode="­" horiz-adv-x="659" d="M72 449zm0 0v200h514V449H72z"/><glyph unicode="®" horiz-adv-x="1704" d="M748 770h69q74 0 112 35t38 100q0 72-36.5 100.5T815 1034h-67V770zm409 139q0-171-153-233l237-397h-211L838 625h-90V279H559v903h262q174 0 255-68t81-205zM100 731q0 200 100 375t275 276 377 101q200 0 375-100t276-275 101-377q0-197-97-370T1235 84 852-20Q645-20 470 83.5T197.5 360 100 731zm123 0q0-170 84.5-315.5T538 186t314-84q170 0 316 85.5t229.5 230T1481 731q0 168-84.5 314.5t-231 230.5-313.5 84q-168 0-312.5-83T309 1048t-86-317z"/><glyph unicode="¯" horiz-adv-x="1024" d="M1030 1556H-6v164h1036v-164z"/><glyph unicode="°" horiz-adv-x="877" d="M109 1153q0 135 95 232.5t234 97.5q138 0 233-96t95-234q0-139-96-233.5T438 825q-88 0-164.5 43.5T153 988t-44 165zm153 0q0-70 51-122t125-52 125 51.5 51 122.5q0 76-52 127t-124 51-124-52-52-126z"/><glyph unicode="±" d="M494 664H96v178h398v407h180V842h399V664H674V258H494v406zM96 0v178h977V0H96z"/><glyph unicode="²" horiz-adv-x="743" d="M678 586H51v135l230 225q117 112 149.5 165t32.5 112q0 52-32 79t-83 27q-93 0-201-88l-94 121q139 119 309 119 136 0 211.5-66t75.5-180q0-83-46-158.5T420 874L281 745h397V586z"/><glyph unicode="³" horiz-adv-x="743" d="M645 1251q0-75-40.5-122.5T485 1042q94-21 141.5-76T674 834q0-127-93-196t-266-69q-148 0-270 62v157q145-79 270-79 179 0 179 135 0 125-199 125H180v133h105q184 0 184 129 0 52-34.5 80t-90.5 28q-57 0-105.5-20T133 1262l-84 114q61 46 134 75.5t171 29.5q134 0 212.5-61.5T645 1251z"/><glyph unicode="´" horiz-adv-x="1212" d="M362 1241v25q57 70 117.5 156t95.5 147h273v-21q-52-61-155.5-157.5T518 1241H362z"/><glyph unicode="µ" horiz-adv-x="1309" d="M403 422q0-252 218-252 146 0 215 88.5T905 555v551h236V0H958l-34 147h-13Q863 64 791.5 22T616-20q-140 0-219 90h-4q3-28 6.5-117t3.5-125v-320H168v1598h235V422z"/><glyph unicode="¶" horiz-adv-x="1341" d="M1143-260h-137v1663H815V-260H678v819q-62-18-146-18-216 0-317.5 125T113 1042q0 260 109 387t341 127h580V-260z"/><glyph unicode="·" horiz-adv-x="563" d="M133 723q0 73 38 112t110 39q73 0 111-40.5T430 723q0-71-38.5-112.5T281 569t-110 41-38 113z"/><glyph unicode="¸" horiz-adv-x="442" d="M426-270q0-222-305-222-66 0-121 15v137q54-14 123-14 54 0 85.5 16.5T240-276q0 85-179 110L145 0h152l-41-88q80-21 125-68.5T426-270z"/><glyph unicode="¹" horiz-adv-x="743" d="M532 586H346v512l3 103 5 91q-17-18-40.5-40T172 1141l-88 112 281 209h167V586z"/><glyph unicode="º" horiz-adv-x="780" d="M719 1124q0-164-87.5-259T387 770q-150 0-238 95.5T61 1124q0 169 88.5 262t241.5 93q152 0 240-94.5t88-260.5zm-496 0q0-111 39-166t127-55 127 55 39 166q0 113-39 167.5T389 1346t-127-54.5-39-167.5z"/><glyph unicode="»" horiz-adv-x="1139" d="M1057 535L698 104l-168 97 283 348-283 350 168 94 359-432v-26zm-451 0L248 104 80 201l282 348L80 899l168 94 358-432v-26z"/><glyph unicode="¼" horiz-adv-x="1700" d="M60 0zm1273 1462L477 0H285l858 1462h190zM508 586H322v512l3 103 5 91q-17-18-40.5-40T148 1141l-88 112 281 209h167V586zm1077-409h-125V1h-192v176H876v127l396 579h188V320h125V177zm-317 143v178q0 97 6 197-52-104-88-158l-148-217h230z"/><glyph unicode="½" horiz-adv-x="1700" d="M46 0zm1252 1462L442 0H250l858 1462h190zM494 586H308v512l3 103 5 91q-17-18-40.5-40T134 1141l-88 112 281 209h167V586zM1608 1H981v135l230 225q117 112 149.5 165t32.5 112q0 52-32 79t-83 27q-93 0-201-88l-94 121q139 119 309 119 136 0 211.5-66t75.5-180q0-83-46-158.5T1350 289l-139-129h397V1z"/><glyph unicode="¾" horiz-adv-x="1700" d="M55 0zm1360 1462L559 0H367l858 1462h190zm225-1285h-125V1h-192v176H931v127l396 579h188V320h125V177zm-317 143v178q0 97 6 197-52-104-88-158l-148-217h230zm-668 931q0-75-40.5-122.5T495 1042q94-21 141.5-76T684 834q0-127-93-196t-266-69q-148 0-270 62v157q145-79 270-79 179 0 179 135 0 125-199 125H190v133h105q184 0 184 129 0 52-34.5 80t-90.5 28q-57 0-105.5-20T143 1262l-84 114q61 46 134 75.5t171 29.5q134 0 212.5-61.5T655 1251z"/><glyph unicode="¿" horiz-adv-x="928" d="M651 645v-63q0-106-41-181T467 246Q343 148 312 99T281-25q0-78 54-125t161-47q90 0 174 27.5T836-104l82-179Q698-393 494-393q-207 0-323 95.5T55-33q0 73 21 130t64 109 157 142q94 76 125 124.5T453 600v45h198zm41 320q0-74-37.5-113T543 813q-72 0-110 39.5T395 965q0 69 38 111t110 42 110.5-40.5T692 965z"/><glyph unicode="À" horiz-adv-x="1354" d="M0 0zm1100 0L954 406H395L252 0H0l547 1468h260L1354 0h-254zM891 612l-137 398q-15 40-41.5 126T676 1262q-27-123-79-269L465 612h426zm-229 967q-69 52-174.5 150.5T334 1886v21h273q38-70 103.5-161T820 1604v-25H662z"/><glyph unicode="Á" horiz-adv-x="1354" d="M0 0zm1100 0L954 406H395L252 0H0l547 1468h260L1354 0h-254zM891 612l-137 398q-15 40-41.5 126T676 1262q-27-123-79-269L465 612h426zm-359 967v25q57 70 117.5 156t95.5 147h273v-21q-52-61-155.5-157.5T688 1579H532z"/><glyph unicode="Â" horiz-adv-x="1354" d="M0 0zm1100 0L954 406H395L252 0H0l547 1468h260L1354 0h-254zM891 612l-137 398q-15 40-41.5 126T676 1262q-27-123-79-269L465 612h426zm6 967q-123 73-228 180-103-103-225-180H286v25q191 198 254 303h260q63-110 256-303v-25H897z"/><glyph unicode="Ã" horiz-adv-x="1354" d="M0 0zm1100 0L954 406H395L252 0H0l547 1468h260L1354 0h-254zM891 612l-137 398q-15 40-41.5 126T676 1262q-27-123-79-269L465 612h426zm-70 967q-42 0-82.5 17.5t-79.5 39-76 39-71 17.5q-81 0-109-115H281q12 139 77.5 212t167.5 73q43 0 84-17.5t80-39 75.5-39T836 1749q79 0 106 115h125q-12-134-77-209.5T821 1579z"/><glyph unicode="Ä" horiz-adv-x="1354" d="M0 0zm1100 0L954 406H395L252 0H0l547 1468h260L1354 0h-254zM891 612l-137 398q-15 40-41.5 126T676 1262q-27-123-79-269L465 612h426zM363 1737q0 62 33.5 89.5T478 1854q53 0 84.5-31t31.5-86q0-53-32-85t-84-32q-48 0-81.5 29t-33.5 88zm393 0q0 62 33.5 89.5T871 1854q53 0 85-31t32-86q0-54-33-85.5t-84-31.5q-48 0-81.5 29t-33.5 88z"/><glyph unicode="Å" horiz-adv-x="1354" d="M0 0zm1100 0L954 406H395L252 0H0l547 1468h260L1354 0h-254zM891 612l-137 398q-15 40-41.5 126T676 1262q-27-123-79-269L465 612h426zm22 965q0-102-65.5-165.5T674 1348t-172 62.5-64 164.5q0 101 63.5 163.5T674 1801q104 0 171.5-62t67.5-162zm-133-2q0 50-30 78.5t-76 28.5q-47 0-77-28.5t-30-78.5q0-106 107-106 46 0 76 27.5t30 78.5z"/><glyph unicode="Æ" horiz-adv-x="1868" d="M1747 0H936v406H432L244 0H-2l678 1462h1071v-202h-571V862h532V662h-532V203h571V0zM522 612h414v641H813z"/><glyph unicode="Ç" horiz-adv-x="1298" d="M121 0zm694 1278q-206 0-324-146T373 729q0-269 113.5-407T815 184q93 0 180 18.5t181 47.5V45q-172-65-390-65-321 0-493 194.5T121 731q0 228 83.5 399T446 1392t371 91q224 0 414-94l-86-199q-74 35-156.5 61.5T815 1278zM952-270q0-222-305-222-66 0-121 15v137q54-14 123-14 54 0 85.5 16.5T766-276q0 85-179 110L671 0h152l-41-88q80-21 125-68.5T952-270z"/><glyph unicode="È" horiz-adv-x="1143" d="M193 0zm827 0H193v1462h827v-202H432V862h551V662H432V203h588V0zM617 1579q-69 52-174.5 150.5T289 1886v21h273q38-70 103.5-161T775 1604v-25H617z"/><glyph unicode="É" horiz-adv-x="1143" d="M193 0zm827 0H193v1462h827v-202H432V862h551V662H432V203h588V0zM440 1579v25q57 70 117.5 156t95.5 147h273v-21q-52-61-155.5-157.5T596 1579H440z"/><glyph unicode="Ê" horiz-adv-x="1143" d="M193 0zm827 0H193v1462h827v-202H432V862h551V662H432V203h588V0zM831 1579q-123 73-228 180-103-103-225-180H220v25q191 198 254 303h260q63-110 256-303v-25H831z"/><glyph unicode="Ë" horiz-adv-x="1143" d="M193 0zm827 0H193v1462h827v-202H432V862h551V662H432V203h588V0zM297 1737q0 62 33.5 89.5T412 1854q53 0 84.5-31t31.5-86q0-53-32-85t-84-32q-48 0-81.5 29t-33.5 88zm393 0q0 62 33.5 89.5T805 1854q53 0 85-31t32-86q0-54-33-85.5t-84-31.5q-48 0-81.5 29t-33.5 88z"/><glyph unicode="Ì" horiz-adv-x="625" d="M0 0zm193 0v1462h239V0H193zm129 1579q-69 52-174.5 150.5T-6 1886v21h273q38-70 103.5-161T480 1604v-25H322z"/><glyph unicode="Í" horiz-adv-x="625" d="M179 0zm14 0v1462h239V0H193zm-14 1579v25q57 70 117.5 156t95.5 147h273v-21q-52-61-155.5-157.5T335 1579H179z"/><glyph unicode="Î" horiz-adv-x="625" d="M0 0zm193 0v1462h239V0H193zm343 1579q-123 73-228 180-103-103-225-180H-75v25q191 198 254 303h260q63-110 256-303v-25H536z"/><glyph unicode="Ï" horiz-adv-x="625" d="M1 0zm192 0v1462h239V0H193zM1 1737q0 62 33.5 89.5T116 1854q53 0 84.5-31t31.5-86q0-53-32-85t-84-32q-48 0-81.5 29T1 1737zm393 0q0 62 33.5 89.5T509 1854q53 0 85-31t32-86q0-54-33-85.5t-84-31.5q-48 0-81.5 29t-33.5 88z"/><glyph unicode="Ð" horiz-adv-x="1497" d="M1374 745q0-360-201-552.5T594 0H193v623H47v200h146v639h446q347 0 541-188.5T1374 745zm-252-8q0 260-124.5 392.5T629 1262H432V823h307V623H432V201h160q530 0 530 536z"/><glyph unicode="Ñ" horiz-adv-x="1604" d="M193 0zm1218 0h-293L399 1165h-8l5-65q14-186 14-340V0H193v1462h290l717-1159h6q-2 23-8 167.5t-6 225.5v766h219V0zM954 1579q-42 0-82.5 17.5t-79.5 39-76 39-71 17.5q-81 0-109-115H414q12 139 77.5 212t167.5 73q43 0 84-17.5t80-39 75.5-39T969 1749q79 0 106 115h125q-12-134-77-209.5T954 1579z"/><glyph unicode="Ò" horiz-adv-x="1612" d="M121 0zm1370 733q0-357-178.5-555T807-20q-331 0-508.5 196.5T121 735t178.5 556T809 1485q326 0 504-197t178-555zm-1116 0q0-270 109-409.5T807 184q213 0 321.5 138T1237 733q0 269-107.5 408T809 1280q-215 0-324.5-139T375 733zm434 846q-69 52-174.5 150.5T481 1886v21h273q38-70 103.5-161T967 1604v-25H809z"/><glyph unicode="Ó" horiz-adv-x="1612" d="M121 0zm1370 733q0-357-178.5-555T807-20q-331 0-508.5 196.5T121 735t178.5 556T809 1485q326 0 504-197t178-555zm-1116 0q0-270 109-409.5T807 184q213 0 321.5 138T1237 733q0 269-107.5 408T809 1280q-215 0-324.5-139T375 733zm282 846v25q57 70 117.5 156t95.5 147h273v-21q-52-61-155.5-157.5T813 1579H657z"/><glyph unicode="Ô" horiz-adv-x="1612" d="M121 0zm1370 733q0-357-178.5-555T807-20q-331 0-508.5 196.5T121 735t178.5 556T809 1485q326 0 504-197t178-555zm-1116 0q0-270 109-409.5T807 184q213 0 321.5 138T1237 733q0 269-107.5 408T809 1280q-215 0-324.5-139T375 733zm649 846q-123 73-228 180-103-103-225-180H413v25q191 198 254 303h260q63-110 256-303v-25h-159z"/><glyph unicode="Õ" horiz-adv-x="1612" d="M121 0zm1370 733q0-357-178.5-555T807-20q-331 0-508.5 196.5T121 735t178.5 556T809 1485q326 0 504-197t178-555zm-1116 0q0-270 109-409.5T807 184q213 0 321.5 138T1237 733q0 269-107.5 408T809 1280q-215 0-324.5-139T375 733zm575 846q-42 0-82.5 17.5t-79.5 39-76 39-71 17.5q-81 0-109-115H410q12 139 77.5 212t167.5 73q43 0 84-17.5t80-39 75.5-39T965 1749q79 0 106 115h125q-12-134-77-209.5T950 1579z"/><glyph unicode="Ö" horiz-adv-x="1612" d="M121 0zm1370 733q0-357-178.5-555T807-20q-331 0-508.5 196.5T121 735t178.5 556T809 1485q326 0 504-197t178-555zm-1116 0q0-270 109-409.5T807 184q213 0 321.5 138T1237 733q0 269-107.5 408T809 1280q-215 0-324.5-139T375 733zm121 1004q0 62 33.5 89.5T611 1854q53 0 84.5-31t31.5-86q0-53-32-85t-84-32q-48 0-81.5 29t-33.5 88zm393 0q0 62 33.5 89.5t81.5 27.5q53 0 85-31t32-86q0-54-33-85.5t-84-31.5q-48 0-81.5 29t-33.5 88z"/><glyph unicode="×" d="M457 723l-326 326 125 127 328-326 329 326 125-123-329-330 325-328-123-125-329 326-324-326-125 125z"/><glyph unicode="Ø" horiz-adv-x="1612" d="M1491 733q0-357-178.5-555T807-20q-213 0-361 81L352-76 211 18l98 144Q121 358 121 735q0 362 178.5 556T809 1485q199 0 354-82l90 129 142-92-99-140q195-199 195-567zm-254 0q0 225-80 361L571 244q97-60 236-60 213 0 321.5 138T1237 733zm-862 0q0-231 78-362l587 850q-92 59-231 59-215 0-324.5-139T375 733z"/><glyph unicode="Ù" horiz-adv-x="1520" d="M180 0zm1159 1462V516q0-162-69.5-283.5t-201-187T754-20q-272 0-423 144T180 520v942h240V537q0-181 84-267t258-86q338 0 338 355v923h239zm-594 117q-69 52-174.5 150.5T417 1886v21h273q38-70 103.5-161T903 1604v-25H745z"/><glyph unicode="Ú" horiz-adv-x="1520" d="M180 0zm1159 1462V516q0-162-69.5-283.5t-201-187T754-20q-272 0-423 144T180 520v942h240V537q0-181 84-267t258-86q338 0 338 355v923h239zm-739 117v25q57 70 117.5 156t95.5 147h273v-21q-52-61-155.5-157.5T756 1579H600z"/><glyph unicode="Û" horiz-adv-x="1520" d="M180 0zm1159 1462V516q0-162-69.5-283.5t-201-187T754-20q-272 0-423 144T180 520v942h240V537q0-181 84-267t258-86q338 0 338 355v923h239zm-362 117q-123 73-228 180-103-103-225-180H366v25q191 198 254 303h260q63-110 256-303v-25H977z"/><glyph unicode="Ü" horiz-adv-x="1520" d="M180 0zm1159 1462V516q0-162-69.5-283.5t-201-187T754-20q-272 0-423 144T180 520v942h240V537q0-181 84-267t258-86q338 0 338 355v923h239zm-894 275q0 62 33.5 89.5T560 1854q53 0 84.5-31t31.5-86q0-53-32-85t-84-32q-48 0-81.5 29t-33.5 88zm393 0q0 62 33.5 89.5T953 1854q53 0 85-31t32-86q0-54-33-85.5t-84-31.5q-48 0-81.5 29t-33.5 88z"/><glyph unicode="Ý" horiz-adv-x="1212" d="M0 0zm606 795l346 667h260L725 567V0H485v559L0 1462h260zm-156 784v25q57 70 117.5 156t95.5 147h273v-21q-52-61-155.5-157.5T606 1579H450z"/><glyph unicode="Þ" horiz-adv-x="1268" d="M1169 776q0-227-146-349T600 305H432V0H193v1462h239v-243h197q268 0 404-112t136-331zM432 504h133q187 0 273 63t86 203q0 127-78 188.5T596 1020H432V504z"/><glyph unicode="ß" horiz-adv-x="1364" d="M1149 1253q0-74-38.5-140.5T1006 995q-90-69-117-98t-27-57q0-30 22.5-55.5T964 721l95-64q92-62 135.5-109.5T1260 444t22-127q0-165-107-251T864-20q-190 0-299 65v199q58-37 139-61.5T852 158q192 0 192 151 0 61-34.5 105T854 532q-119 73-171 135t-52 146q0 63 34 115.5T770 1034q75 55 107 97.5t32 93.5q0 72-67 112.5T664 1378q-127 0-194-54t-67-159V0H168v1169q0 193 128.5 295.5T664 1567q225 0 355-84t130-230z"/><glyph unicode="à" horiz-adv-x="1188" d="M90 0zm770 0l-47 154h-8Q725 53 644 16.5T436-20q-163 0-254.5 88T90 317q0 171 127 258t387 95l191 6v59q0 106-49.5 158.5T592 946q-85 0-163-25t-150-59l-76 168q90 47 197 71.5t202 24.5q211 0 318.5-92T1028 745V0H860zM510 160q128 0 205.5 71.5T793 432v96l-142-6q-166-6-241.5-55.5T334 315q0-74 44-114.5T510 160zm77 1081q-69 52-174.5 150.5T259 1548v21h273q38-70 103.5-161T745 1266v-25H587z"/><glyph unicode="á" horiz-adv-x="1188" d="M90 0zm770 0l-47 154h-8Q725 53 644 16.5T436-20q-163 0-254.5 88T90 317q0 171 127 258t387 95l191 6v59q0 106-49.5 158.5T592 946q-85 0-163-25t-150-59l-76 168q90 47 197 71.5t202 24.5q211 0 318.5-92T1028 745V0H860zM510 160q128 0 205.5 71.5T793 432v96l-142-6q-166-6-241.5-55.5T334 315q0-74 44-114.5T510 160zm-72 1081v25q57 70 117.5 156t95.5 147h273v-21q-52-61-155.5-157.5T594 1241H438z"/><glyph unicode="â" horiz-adv-x="1188" d="M90 0zm770 0l-47 154h-8Q725 53 644 16.5T436-20q-163 0-254.5 88T90 317q0 171 127 258t387 95l191 6v59q0 106-49.5 158.5T592 946q-85 0-163-25t-150-59l-76 168q90 47 197 71.5t202 24.5q211 0 318.5-92T1028 745V0H860zM510 160q128 0 205.5 71.5T793 432v96l-142-6q-166-6-241.5-55.5T334 315q0-74 44-114.5T510 160zm304 1081q-123 73-228 180-103-103-225-180H203v25q191 198 254 303h260q63-110 256-303v-25H814z"/><glyph unicode="ã" horiz-adv-x="1188" d="M90 0zm770 0l-47 154h-8Q725 53 644 16.5T436-20q-163 0-254.5 88T90 317q0 171 127 258t387 95l191 6v59q0 106-49.5 158.5T592 946q-85 0-163-25t-150-59l-76 168q90 47 197 71.5t202 24.5q211 0 318.5-92T1028 745V0H860zM510 160q128 0 205.5 71.5T793 432v96l-142-6q-166-6-241.5-55.5T334 315q0-74 44-114.5T510 160zm238 1081q-42 0-82.5 17.5t-79.5 39-76 39-71 17.5q-81 0-109-115H208q12 139 77.5 212t167.5 73q43 0 84-17.5t80-39 75.5-39T763 1411q79 0 106 115h125q-12-134-77-209.5T748 1241z"/><glyph unicode="ä" horiz-adv-x="1188" d="M90 0zm770 0l-47 154h-8Q725 53 644 16.5T436-20q-163 0-254.5 88T90 317q0 171 127 258t387 95l191 6v59q0 106-49.5 158.5T592 946q-85 0-163-25t-150-59l-76 168q90 47 197 71.5t202 24.5q211 0 318.5-92T1028 745V0H860zM510 160q128 0 205.5 71.5T793 432v96l-142-6q-166-6-241.5-55.5T334 315q0-74 44-114.5T510 160zM282 1399q0 62 33.5 89.5T397 1516q53 0 84.5-31t31.5-86q0-53-32-85t-84-32q-48 0-81.5 29t-33.5 88zm393 0q0 62 33.5 89.5T790 1516q53 0 85-31t32-86q0-54-33-85.5t-84-31.5q-48 0-81.5 29t-33.5 88z"/><glyph unicode="å" horiz-adv-x="1188" d="M90 0zm770 0l-47 154h-8Q725 53 644 16.5T436-20q-163 0-254.5 88T90 317q0 171 127 258t387 95l191 6v59q0 106-49.5 158.5T592 946q-85 0-163-25t-150-59l-76 168q90 47 197 71.5t202 24.5q211 0 318.5-92T1028 745V0H860zM510 160q128 0 205.5 71.5T793 432v96l-142-6q-166-6-241.5-55.5T334 315q0-74 44-114.5T510 160zm331 1308q0-102-65.5-165.5T602 1239t-172 62.5-64 164.5q0 101 63.5 163.5T602 1692q104 0 171.5-62t67.5-162zm-133-2q0 50-30 78.5t-76 28.5q-47 0-77-28.5t-30-78.5q0-106 107-106 46 0 76 27.5t30 78.5z"/><glyph unicode="æ" horiz-adv-x="1817" d="M90 317q0 172 121.5 258.5T582 670l188 6v76q0 194-201 194-141 0-307-82l-74 166q88 47 192.5 71.5T584 1126q241 0 340-155 120 155 346 155 206 0 328-134.5T1720 629V502h-712q10-336 301-336 184 0 356 80V55q-86-41-171.5-58T1298-20q-140 0-248.5 54.5T874 199Q780 74 683.5 27T442-20q-165 0-258.5 90T90 317zm244-2q0-155 166-155 124 0 196 72.5T768 432v96l-135-6q-155-6-227-54.5T334 315zm932 633q-112 0-177.5-69.5T1014 670h473q0 130-58.5 204T1266 948z"/><glyph unicode="ç" horiz-adv-x="1014" d="M102 0zm512-20q-251 0-381.5 146.5T102 547q0 279 136.5 429T633 1126q175 0 315-65l-71-189q-149 58-246 58-287 0-287-381 0-186 71.5-279.5T625 176q157 0 297 78V49Q859 12 787.5-4T614-20zm168-250q0-222-305-222-66 0-121 15v137q54-14 123-14 54 0 85.5 16.5T596-276q0 85-179 110L501 0h152l-41-88q80-21 125-68.5T782-270z"/><glyph unicode="è" horiz-adv-x="1180" d="M102 0zm549-20q-258 0-403.5 150.5T102 545q0 271 135 426t371 155q219 0 346-133t127-366V500H344q5-161 87-247.5T662 166q98 0 182.5 18.5T1026 246V55Q940 14 852-3T651-20zm-43 968q-112 0-179.5-71T348 670h502q-2 137-66 207.5T608 948zm1 293q-69 52-174.5 150.5T281 1548v21h273q38-70 103.5-161T767 1266v-25H609z"/><glyph unicode="é" horiz-adv-x="1180" d="M102 0zm549-20q-258 0-403.5 150.5T102 545q0 271 135 426t371 155q219 0 346-133t127-366V500H344q5-161 87-247.5T662 166q98 0 182.5 18.5T1026 246V55Q940 14 852-3T651-20zm-43 968q-112 0-179.5-71T348 670h502q-2 137-66 207.5T608 948zm-150 293v25q57 70 117.5 156t95.5 147h273v-21q-52-61-155.5-157.5T614 1241H458z"/><glyph unicode="ê" horiz-adv-x="1180" d="M102 0zm549-20q-258 0-403.5 150.5T102 545q0 271 135 426t371 155q219 0 346-133t127-366V500H344q5-161 87-247.5T662 166q98 0 182.5 18.5T1026 246V55Q940 14 852-3T651-20zm-43 968q-112 0-179.5-71T348 670h502q-2 137-66 207.5T608 948zm230 293q-123 73-228 180-103-103-225-180H227v25q191 198 254 303h260q63-110 256-303v-25H838z"/><glyph unicode="ë" horiz-adv-x="1180" d="M102 0zm549-20q-258 0-403.5 150.5T102 545q0 271 135 426t371 155q219 0 346-133t127-366V500H344q5-161 87-247.5T662 166q98 0 182.5 18.5T1026 246V55Q940 14 852-3T651-20zm-43 968q-112 0-179.5-71T348 670h502q-2 137-66 207.5T608 948zm-301 451q0 62 33.5 89.5T422 1516q53 0 84.5-31t31.5-86q0-53-32-85t-84-32q-48 0-81.5 29t-33.5 88zm393 0q0 62 33.5 89.5T815 1516q53 0 85-31t32-86q0-54-33-85.5t-84-31.5q-48 0-81.5 29t-33.5 88z"/><glyph unicode="ì" horiz-adv-x="571" d="M0 0zm403 0H168v1106h235V0zM259 1241q-69 52-174.5 150.5T-69 1548v21h273q38-70 103.5-161T417 1266v-25H259z"/><glyph unicode="í" horiz-adv-x="571" d="M156 0zm247 0H168v1106h235V0zM156 1241v25q57 70 117.5 156t95.5 147h273v-21q-52-61-155.5-157.5T312 1241H156z"/><glyph unicode="î" horiz-adv-x="571" d="M0 0zm403 0H168v1106h235V0zm108 1241q-123 73-228 180-103-103-225-180h-158v25q191 198 254 303h260q63-110 256-303v-25H511z"/><glyph unicode="ï" horiz-adv-x="571" d="M0 0zm403 0H168v1106h235V0zM-25 1399q0 62 33.5 89.5T90 1516q53 0 84.5-31t31.5-86q0-53-32-85t-84-32q-48 0-81.5 29t-33.5 88zm393 0q0 62 33.5 89.5T483 1516q53 0 85-31t32-86q0-54-33-85.5t-84-31.5q-48 0-81.5 29t-33.5 88z"/><glyph unicode="ð" horiz-adv-x="1243" d="M1149 567q0-279-137.5-433T623-20q-235 0-378 136T102 481q0 231 131 365.5T584 981q214 0 301-111l8 4q-62 189-227 345l-250-150-88 133 204 119q-86 59-167 102l84 146q140-63 258-144l231 138 88-129-188-113q152-140 231.5-330t79.5-424zm-240-45q0 127-75.5 202T627 799q-151 0-218-82t-67-240q0-153 74-234t211-81q148 0 215 91t67 269z"/><glyph unicode="ñ" horiz-adv-x="1300" d="M168 0zm973 0H905v680q0 128-51.5 191T690 934q-149 0-218-88t-69-295V0H168v1106h184l33-145h12q50 79 142 122t204 43q398 0 398-405V0zM809 1241q-42 0-82.5 17.5t-79.5 39-76 39-71 17.5q-81 0-109-115H269q12 139 77.5 212t167.5 73q43 0 84-17.5t80-39 75.5-39T824 1411q79 0 106 115h125q-12-134-77-209.5T809 1241z"/><glyph unicode="ò" horiz-adv-x="1251" d="M102 0zm1047 555q0-271-139-423T623-20q-155 0-274 70T166 251t-64 304q0 269 138 420t389 151q240 0 380-154.5T1149 555zm-805 0q0-383 283-383 280 0 280 383 0 379-282 379-148 0-214.5-98T344 555zm277 686q-69 52-174.5 150.5T293 1548v21h273q38-70 103.5-161T779 1266v-25H621z"/><glyph unicode="ó" horiz-adv-x="1251" d="M102 0zm1047 555q0-271-139-423T623-20q-155 0-274 70T166 251t-64 304q0 269 138 420t389 151q240 0 380-154.5T1149 555zm-805 0q0-383 283-383 280 0 280 383 0 379-282 379-148 0-214.5-98T344 555zm129 686v25q57 70 117.5 156t95.5 147h273v-21q-52-61-155.5-157.5T629 1241H473z"/><glyph unicode="ô" horiz-adv-x="1251" d="M102 0zm1047 555q0-271-139-423T623-20q-155 0-274 70T166 251t-64 304q0 269 138 420t389 151q240 0 380-154.5T1149 555zm-805 0q0-383 283-383 280 0 280 383 0 379-282 379-148 0-214.5-98T344 555zm506 686q-123 73-228 180-103-103-225-180H239v25q191 198 254 303h260q63-110 256-303v-25H850z"/><glyph unicode="õ" horiz-adv-x="1251" d="M102 0zm1047 555q0-271-139-423T623-20q-155 0-274 70T166 251t-64 304q0 269 138 420t389 151q240 0 380-154.5T1149 555zm-805 0q0-383 283-383 280 0 280 383 0 379-282 379-148 0-214.5-98T344 555zm431 686q-42 0-82.5 17.5t-79.5 39-76 39-71 17.5q-81 0-109-115H235q12 139 77.5 212t167.5 73q43 0 84-17.5t80-39 75.5-39T790 1411q79 0 106 115h125q-12-134-77-209.5T775 1241z"/><glyph unicode="ö" horiz-adv-x="1251" d="M102 0zm1047 555q0-271-139-423T623-20q-155 0-274 70T166 251t-64 304q0 269 138 420t389 151q240 0 380-154.5T1149 555zm-805 0q0-383 283-383 280 0 280 383 0 379-282 379-148 0-214.5-98T344 555zm-33 844q0 62 33.5 89.5T426 1516q53 0 84.5-31t31.5-86q0-53-32-85t-84-32q-48 0-81.5 29t-33.5 88zm393 0q0 62 33.5 89.5T819 1516q53 0 85-31t32-86q0-54-33-85.5t-84-31.5q-48 0-81.5 29t-33.5 88z"/><glyph unicode="÷" d="M96 633v178h977V633H96zm361-260q0 64 31.5 99.5T584 508q61 0 93-36t32-99-34-100-91-37q-60 0-93.5 35.5T457 373zm0 698q0 64 31.5 99.5T584 1206q61 0 93-36t32-99-34-100-91-37q-60 0-93.5 35.5T457 1071z"/><glyph unicode="ø" horiz-adv-x="1251" d="M1149 555q0-271-139-423T623-20q-144 0-250 57L297-72 162 18l82 117Q102 290 102 555q0 269 138 420t389 151q144 0 258-63l69 100 136-92-78-108q135-152 135-408zm-805 0q0-135 37-219l391 559q-60 39-147 39-148 0-214.5-98T344 555zm563 0q0 121-33 203L487 205q54-33 140-33 280 0 280 383z"/><glyph unicode="ù" horiz-adv-x="1300" d="M158 0zm790 0l-33 145h-12Q854 68 763.5 24T557-20Q356-20 257 80t-99 303v723h237V424q0-127 52-190.5T610 170q148 0 217.5 88.5T897 555v551h236V0H948zM617 1241q-69 52-174.5 150.5T289 1548v21h273q38-70 103.5-161T775 1266v-25H617z"/><glyph unicode="ú" horiz-adv-x="1300" d="M158 0zm790 0l-33 145h-12Q854 68 763.5 24T557-20Q356-20 257 80t-99 303v723h237V424q0-127 52-190.5T610 170q148 0 217.5 88.5T897 555v551h236V0H948zM501 1241v25q57 70 117.5 156t95.5 147h273v-21q-52-61-155.5-157.5T657 1241H501z"/><glyph unicode="û" horiz-adv-x="1300" d="M158 0zm790 0l-33 145h-12Q854 68 763.5 24T557-20Q356-20 257 80t-99 303v723h237V424q0-127 52-190.5T610 170q148 0 217.5 88.5T897 555v551h236V0H948zm-77 1241q-123 73-228 180-103-103-225-180H260v25q191 198 254 303h260q63-110 256-303v-25H871z"/><glyph unicode="ü" horiz-adv-x="1300" d="M158 0zm790 0l-33 145h-12Q854 68 763.5 24T557-20Q356-20 257 80t-99 303v723h237V424q0-127 52-190.5T610 170q148 0 217.5 88.5T897 555v551h236V0H948zM332 1399q0 62 33.5 89.5T447 1516q53 0 84.5-31t31.5-86q0-53-32-85t-84-32q-48 0-81.5 29t-33.5 88zm393 0q0 62 33.5 89.5T840 1516q53 0 85-31t32-86q0-54-33-85.5t-84-31.5q-48 0-81.5 29t-33.5 88z"/><glyph unicode="ý" horiz-adv-x="1098" d="M0 0zm0 1106h256l225-627q51-134 68-252h8q9 55 33 133.5T844 1106h254L625-147Q496-492 195-492q-78 0-152 17v186q53-12 121-12 170 0 239 197L444 0zm401 135v25q57 70 117.5 156t95.5 147h273v-21q-52-61-155.5-157.5T557 1241H401z"/><glyph unicode="þ" horiz-adv-x="1276" d="M403 961q61 86 142.5 125.5T733 1126q206 0 322-151t116-420q0-272-116.5-423.5T733-20q-219 0-330 149h-14l8-72 6-92v-457H168v2048h235v-430l-7-138-3-27h10zm271-27q-142 0-206.5-82T403 592v-37q0-202 64-292.5T676 172q254 0 254 385 0 190-61.5 283.5T674 934z"/><glyph unicode="ÿ" horiz-adv-x="1098" d="M0 0zm0 1106h256l225-627q51-134 68-252h8q9 55 33 133.5T844 1106h254L625-147Q496-492 195-492q-78 0-152 17v186q53-12 121-12 170 0 239 197L444 0zm239 293q0 62 33.5 89.5T354 1516q53 0 84.5-31t31.5-86q0-53-32-85t-84-32q-48 0-81.5 29t-33.5 88zm393 0q0 62 33.5 89.5T747 1516q53 0 85-31t32-86q0-54-33-85.5t-84-31.5q-48 0-81.5 29t-33.5 88z"/><glyph unicode="ı" horiz-adv-x="571" d="M403 0H168v1106h235V0z"/><glyph unicode="Œ" horiz-adv-x="1942" d="M1819 0H999Q897-20 788-20q-320 0-493.5 196.5T121 735q0 360 172 555t491 195q115 0 209-23h826v-202h-576V862h539V662h-539V203h576V0zM793 1280q-208 0-315-139T371 733t106-409 314-140q129 0 213 35v1024q-80 37-211 37z"/><glyph unicode="œ" horiz-adv-x="1966" d="M1438-20q-281 0-420 194Q886-20 618-20q-236 0-376 155T102 555q0 272 137 421.5T621 1126q121 0 223-49t168-145q131 194 379 194 221 0 349-133.5T1868 627V500h-738q11-164 85.5-249t228.5-85q102 0 187 18.5t181 61.5V55q-84-40-171.5-57.5T1438-20zM344 555q0-189 65.5-286T621 172q141 0 206.5 95.5T893 551q0 192-66 287.5T616 934q-143 0-207.5-95T344 555zm1049 393q-110 0-177.5-69.5T1137 670h497q0 134-63 206t-178 72z"/><glyph unicode="Ÿ" horiz-adv-x="1212" d="M0 0zm606 795l346 667h260L725 567V0H485v559L0 1462h260zm-313 942q0 62 33.5 89.5T408 1854q53 0 84.5-31t31.5-86q0-53-32-85t-84-32q-48 0-81.5 29t-33.5 88zm393 0q0 62 33.5 89.5T801 1854q53 0 85-31t32-86q0-54-33-85.5t-84-31.5q-48 0-81.5 29t-33.5 88z"/><glyph unicode="ˆ" horiz-adv-x="1227" d="M838 1241q-123 73-228 180-103-103-225-180H227v25q191 198 254 303h260q63-110 256-303v-25H838z"/><glyph unicode="˚" horiz-adv-x="1182" d="M827 1468q0-102-65.5-165.5T588 1239t-172 62.5-64 164.5q0 101 63.5 163.5T588 1692q104 0 171.5-62t67.5-162zm-133-2q0 50-30 78.5t-76 28.5q-47 0-77-28.5t-30-78.5q0-106 107-106 46 0 76 27.5t30 78.5z"/><glyph unicode="˜" horiz-adv-x="1227" d="M776 1241q-42 0-82.5 17.5t-79.5 39-76 39-71 17.5q-81 0-109-115H236q12 139 77.5 212t167.5 73q43 0 84-17.5t80-39 75.5-39T791 1411q79 0 106 115h125q-12-134-77-209.5T776 1241z"/><glyph horiz-adv-x="953"/><glyph horiz-adv-x="1907"/><glyph horiz-adv-x="953"/><glyph horiz-adv-x="1907"/><glyph horiz-adv-x="635"/><glyph horiz-adv-x="476"/><glyph horiz-adv-x="317"/><glyph horiz-adv-x="317"/><glyph horiz-adv-x="238"/><glyph horiz-adv-x="381"/><glyph horiz-adv-x="105"/><glyph unicode="‐" horiz-adv-x="659" d="M72 449v200h514V449H72z"/><glyph unicode="‑" horiz-adv-x="659" d="M72 449v200h514V449H72z"/><glyph unicode="‒" horiz-adv-x="659" d="M72 449v200h514V449H72z"/><glyph unicode="–" horiz-adv-x="1024" d="M82 455v190h860V455H82z"/><glyph unicode="—" horiz-adv-x="2048" d="M82 455v190h1884V455H82z"/><glyph unicode="‘" horiz-adv-x="395" d="M37 961l-12 22q20 83 71 224t105 255h170q-64-256-101-501H37z"/><glyph unicode="’" horiz-adv-x="395" d="M356 1462l15-22q-53-209-176-479H25q69 289 100 501h231z"/><glyph unicode="‚" horiz-adv-x="549" d="M412 215Q364 29 236-264H63Q132 6 166 238h231z"/><glyph unicode="“" horiz-adv-x="813" d="M440 983q53 203 178 479h170q-69-296-100-501H455zm-415 0q20 83 71 224t105 255h170q-64-256-101-501H37z"/><glyph unicode="”" horiz-adv-x="813" d="M371 1440q-53-209-176-479H25q69 289 100 501h231zm417 0q-53-209-176-479H440q69 271 103 501h231z"/><glyph unicode="„" horiz-adv-x="944" d="M391 215Q336 1 215-264H43Q109-4 145 238h232zm418 0Q761 29 633-264H461Q527-4 563 238h232z"/><glyph unicode="•" horiz-adv-x="770" d="M131 748q0 138 66 210t188 72q121 0 187.5-72.5T639 748q0-135-67-209t-187-74-187 72.5T131 748z"/><glyph unicode="…" horiz-adv-x="1677" d="M133 125q0 73 38 112t110 39q73 0 111-40.5T430 125q0-71-38.5-112.5T281-29 171 12t-38 113zm557 0q0 73 38 112t110 39q73 0 111-40.5T987 125q0-71-38.5-112.5T838-29 728 12t-38 113zm557 0q0 73 38 112t110 39q73 0 111-40.5t38-110.5q0-71-38.5-112.5T1395-29t-110 41-38 113z"/><glyph horiz-adv-x="381"/><glyph unicode="‹" horiz-adv-x="688" d="M82 561l356 432 168-94-282-350 282-348-168-97L82 535v26z"/><glyph unicode="›" horiz-adv-x="688" d="M606 535L248 104 80 201l282 348L80 899l168 94 358-432v-26z"/><glyph unicode="⁄" horiz-adv-x="266" d="M655 1462L-201 0h-192l858 1462h190z"/><glyph horiz-adv-x="476"/><glyph unicode="⁴" horiz-adv-x="743" d="M725 762H600V586H408v176H16v127l396 579h188V905h125V762zM408 905v178q0 97 6 197-52-104-88-158L178 905h230z"/><glyph unicode="€" horiz-adv-x="1188" d="M799 1278q-141 0-230.5-84T449 940h456V786H434l-2-45v-55l2-39h408V494H451q64-312 364-312 143 0 293 62V41Q977-20 803-20q-241 0-391.5 132T215 494H63v153h136l-2 37v37l2 65H63v154h150q38 251 191 394t395 143q200 0 358-88l-84-187q-154 76-274 76z"/><glyph unicode="™" horiz-adv-x="1561" d="M375 741H229v592H27v129h553v-129H375V741zm588 0l-185 543h-6l4-119V741H635v721h217l178-534 187 534h210V741h-147v414l4 129h-6l-193-543H963z"/><glyph unicode="" horiz-adv-x="1105" d="M0 1105h1105V0H0v1105z"/><glyph horiz-adv-x="1276" d="M0 0z"/></font>
</defs>
</svg>
